Enable / Włącz Javascript
 Widok 
 Kategorie 
 Nitro Torrent w sieci 
 Top 10 użytkowników 
 Królestwo Zwierząt - Animal Kingdom *2016* S03E01-09 [480p] [AMZN] [WEBRip] [XviD] [AC3-AX2] [Napisy PL]

Królestwo Zwierząt - Animal Kingdom *2016* S03E01-09 [480p] [AMZN] [WEBRip] [XviD] [AC3-AX2] [Napisy PL]
Kategoria: » » » »
Dodane: 22/11/2018
Rozmiar: 5.60 GB
Uploader: tomysparow559 (10)
seed(ów): 0
leecher(ów): 36
Pobrane: 51
Komentarzy: 0
Pobierz Torrent Pobierz Torrent
Pobierz [Magnet] Pobierz [Magnet]

Obserwuj
Raportuj
==================
...::: INFO :::...
==================

Gatunek: Kryminał, Dramat
Produkcja: USA
Stacja telewizyjna: TNT
Data premiery serialu: 14.06.2016 - Świat
Czas trwania odcinka około 50 min.
Twórcy: Jonathan Lisco

==================
...::: OPIS :::...
==================

Animal Kingdom ? amerykański serial telewizyjny (dramat kryminalny) wyprodukowany przez John Wells Productions oraz Warner Horizon Television. Serial jest adaptacją filmu Królestwo zwierząt w reżyserii Davida Michôda.

Serial skupia się na 17-letnim Joshu, który po śmierci swoich rodziców przeprowadza się do krewnych w południowej Kalifornii. Rodzina nie należy do porządnych ludzi, prowadzą dziwne interesy niezgodne z prawem.

==============
...::: OBSADA :::...
==============

Finn Cole - Joshua "J" Cody
Shawn Hatosy - Andrew "Pope" Cody
Ellen Barkin - Janine "Smurf" Cody
Ben Robson - Craig Cody
Scott Speedman - Barry "Baz" Blackwell
Christina Ochoa - Renn Randall

=======================
...::: DANE TECHNICZNE :::...
=======================

Format                         : AVI
Format/Info                    : Audio Video Interleave
File size                      : 699 MiB
Duration                       : 45 min 47 s
Overall bit rate               : 2 133 kb/s
Writing application            : VirtualDubMod 1.5.10.2 (build 2542/release)
Writing library                : VirtualDubMod build 2542/release

Video
ID                             : 0
Format                         : MPEG-4 Visual
Format profile                 : Advanced Simple@L5
Format settings                : BVOP1
Format settings, BVOP          : 1
Format settings, QPel          : No
Format settings, GMC           : No warppoints
Format settings, Matrix        : Default (H.263)
Muxing mode                    : Packed bitstream
Codec ID                       : XVID
Codec ID/Hint                  : XviD
Duration                       : 45 min 47 s
Bit rate                       : 1 741 kb/s
Width                          : 720 pixels
Height                         : 404 pixels
Display aspect ratio           : 16:9
Frame rate                     : 23.976 (24000/1001) FPS
Color space                    : YUV
Chroma subsampling             : 4:2:0
Bit depth                      : 8 bits
Scan type                      : Progressive
Compression mode               : Lossy
Bits/(Pixel*Frame)             : 0.250
Stream size                    : 570 MiB (82%)
Writing library                : XviD 66

Audio
ID                             : 1
Format                         : AC-3
Format/Info                    : Audio Coding 3
Commercial name                : Dolby Digital
Codec ID                       : 2000
Duration                       : 45 min 47 s
Bit rate mode                  : Constant
Bit rate                       : 384 kb/s
Channel(s)                     : 2 channels
Channel layout                 : L R
Sampling rate                  : 48.0 kHz
Frame rate                     : 31.250 FPS (1536 SPF)
Bit depth                      : 16 bits
Compression mode               : Lossy
Stream size                    : 126 MiB (18%)
Alignment                      : Split accross interleaves
Interleave, duration           : 64  ms (1.53 video frames)
Interleave, preload duration   : 500  ms
Service kind                   : Complete Main
Dostępne napisy
Brak napisów
Szczegóły torrenta
Tracker http://tracker.vanitycore.co:6969/announce
Multitracker [ Pokaż ]
Kategoria: » » » » [Zgłoś błąd]
Dodane 22-11-2018
Podziękowali:
0 użytkowników 
Podziękuj!
Pokaż / Ukryj pliki:
Nazwa pliku Rozmiar
! Chcesz mieć TO szybciej - zapraszamy-KLIK.url 0.11 KB
! Want YOU more -CLIK.url 0.11 KB
Zapraszamy-KLIK.url 0.11 KB
LoGo.png 202.81 KB
Animal.Kingdom.2016.S03E06.PLSUBBED.480p.AMZN.WEB.DL.XviD.AC3-AX2.avi 547.97 MB
Animal.Kingdom.2016.S03E08.PLSUBBED.480p.AMZN.WEBRip.XviD.AC3-AX2.avi 598.00 MB
Animal.Kingdom.2016.S03E04.PLSUBBED.480p.AMZN.WEBRip.XviD.AC3-AX2.avi 598.12 MB
Animal.Kingdom.2016.S03E05.PLSUBBED.480p.AMZN.WEB.DL.XviD.AC3-AX2.avi 598.20 MB
Animal.Kingdom.2016.S03E03.PLSUBBED.480p.AMZN.WEBRip.XviD.AC3-AX2.avi 598.23 MB
Animal.Kingdom.2016.S03E07.PLSUBBED.480p.AMZN.WEBRip.XviD.AC3-AX2.avi 697.99 MB
Animal.Kingdom.2016.S03E02.PLSUBBED.480p.AMZN.WEBRip.XviD.AC3-AX2.avi 698.25 MB
Animal.Kingdom.2016.S03E01.PLSUBBED.480p.AMZN.WEBRip.XviD.AC3-AX2.avi 698.66 MB
Animal.Kingdom.2016.S03E09.PLSUBBED.480p.AMZN.WEBRip.XviD.AC3-AX2.avi 698.78 MB
13 plików
Brak komentarzy...